Faust (2011) DVDRip AC3 HORiZON ArtSubs / ALTYAZILI / Tek Link indir izle

IMDB:
Faust (2011) - IMDb

Gösterim Tarihi: 29 Haziran 2012

Ülke : Rusya

Tür : Dram, Fantastik
Süre : 140 dakika

TRAILER


KONUSU
Aleksandr Sokurov’un deneysel ve stilize bir yabancılaştırmanın derinliklerinde gezindiği zamanının çok ötesindeki başyapıtı Venedik Film Festivali’nden Altın Aslan ile döndü. Kendi ruhunu bilgelik karşılığında şeytana satan bir adamın öyküsünü anlatan Faust, henüz ilk anından itibaren klasik anlatı yöntemlerinin tümünü reddederek yapılagelmiş sinemanın sınırlarını zorluyor. Görsel dehasını seyirciye mesafeli bir tavır takınarak ve yarattığı grotesk tabanda ilerleyen atmosferin izinden giderek teatral estetik ile bütünleyen Aleksandr Sokurov ise herkese hitap etmeyen filmler kuşağına alabildiğine ürkünç ve kendine özgü bir uyarlama kazandırıyor. Tek izlemede hazmedilemeyen Faust, türler ötesi bir deneyim olarak her daim hatırlanacakmış gibi gözüküyor.


Title: Faust (2011)
Contry: Germany/Russia
Director: Aleksandr Sokurov
Writers: Yuri Arabov (book), Aleksandr Sokurov (screenplay)
Stars: Johannes Zeiler, Anton Adasinsky and Isolda Dychauk
Language: German

Plot:
A version of the German legend in which a man who sells his soul to the devil in exchange for knowledge. Won Golden Lion in Venice Film Festival 2011.

Rip Specs:
General
Complete name : Faust.2011.DVDRip.AC3.HORiZON-ArtSubs
Format : AVI
Format/Info : Audio Video Interleave
File size : 1.95 GiB
Duration : 2h 13mn
Overall bit rate : 2 086 Kbps
Writing library : The best and REALLY easy backup tool

Storyline A man sells his soul to the devil in exchange for knowledge.

Video
ID : 0
Format : MPEG-4 Visual
Format profile : Advanced [email protected]
Format settings, BVOP : 1
Format settings, QPel : No
Format settings, GMC : No warppoints
Format settings, Matrix : Default (MPEG)
Muxing mode : Packed bitstream
Codec ID : XVID
Codec ID/Hint : XviD
Duration : 2h 13mn
Bit rate : 1 629 Kbps
Width : 656 pixels
Height : 480 pixels
Display aspect ratio : 4:3
Frame rate : 25.000 fps
Color space : YUV
Chroma subsampling : 4:2:0
Bit depth : 8 bits
Scan type : Progressive
Compression mode : Lossy
Bits/(Pixel*Frame) : 0.207
Stream size : 1.52 GiB (78%)
Writing library : XviD 1.2.0.dev47 (UTC 2006-11-01)

Audio
ID : 1
Format : AC-3
Format/Info : Audio Coding 3
Mode extension : CM (complete main)
Codec ID : 2000
Duration : 2h 13mn
Bit rate mode : Constant
Bit rate : 448 Kbps
Channel(s) : 6 channels
Channel positions : Front: L C R, Side: L R, LFE
Sampling rate : 48.0 KHz
Bit depth : 16 bits
Compression mode : Lossy
Stream size : 429 MiB (21%)
Alignment : Split accross interleaves
Interleave, duration : 40 ms (1.00 video frame)
Interleave, preload duration : 500 ms






DVDRFaust2011ALTYAZILI



DVDRFaust2011ALTYAZILI.part1.rar - 800.0 MB
DVDRFaust2011ALTYAZILI.part2.rar - 800.0 MB
DVDRFaust2011ALTYAZILI.part3.rar - 397.1 MB

DVDRFaust2011ALTYAZILI.part1.rar download for free on file share letitbit.net
DVDRFaust2011ALTYAZILI.part2.rar download for free on file share letitbit.net
DVDRFaust2011ALTYAZILI.part3.rar download for free on file share letitbit.net

Скачать файл DVDRFaust2011ALTYAZILI.part1.rar. Скачать бесплатно и без регистрации с TurboBit.net
Скачать файл DVDRFaust2011ALTYAZILI.part2.rar. Скачать бесплатно и без регистрации с TurboBit.net
Скачать файл DVDRFaust2011ALTYAZILI.part3.rar. Скачать бесплатно и без регистрации с TurboBit.net

DVDRFaust2011ALTYAZILI.part…rar (800,00 MB) - uploaded.net
DVDRFaust2011ALTYAZILI.part…rar (800,00 MB) - uploaded.net
DVDRFaust2011ALTYAZILI.part…rar (397,15 MB) - uploaded.net


Altyazı rar içindedir.


Faust (2011) Film Altyazı