Omnivoros - Hepçiller (2013) WEBRip XviD AC3-RARBG / ALTYAZILI / Tek Link indir izle

IMDB:
Omnívoros (2013) - IMDb

A.K.A
Omnivores, Omnívoros

Director: Óscar Rojo
Writer: Óscar Rojo

Actors
:
Ángel Acero , Fernando Albizu , Carina Björne , Mario de la Rosa , Marta Flich , Darío Frias , Ismael Fritschi , Sara Gómez , Esther Lara , Alberto Jo Lee , Aitor Legardón , Paco Manzanedo , Elisa Matilla , Rebeca Moreno , Teresa Soria Ruano

Synopsis
MARCOS VELA is a prestigious gastronomic journalist who accepts the request of an independent publisher to write an article on the recent emergence of the Clandestine Restaurants. The journalist also accepts the invitation to attend the first of these restaurants. There he meets EVA, a woman who will maintain an intense relationship with him. EVA shows MARCOS into the world of the Clandestine Restaurants to help him with his review. But his investigation leads him to a restaurant where furtive gatherings take place in order to taste human flesh, having previously paid high sums of money. This discovery can give a new meaning to the article he is writing, Thats why MARCOS convinces the independent publisher who hired him to pay the price that will let him access this weird Clandestine Restaurant. Once he gets the access, MARCOS VELA will see himself involved into some uncanny luxurious cannibalism and will be a victim of an Organization, one that will be practically impossible to escape from... What started as a usual journalistic investigation, will turn into a terrible nightmare where no one is who seems to be and which will end in a surprising and unexpected ending.


Yapım : 2013

Ülke : İspanya

Tür : Korku, Gerilim

KONUSU
Ünlü bir yemek eleştirmeni yasadışı restoranları araştırmak ve hakklarında yazı yazmak için bir antlaşmayı kabul eder. Daha sonra bir restoranda büyük paralar karşılığında yamyamlık yapıldığını öğrenir.
Info:
Format : AVI
Format/Info : Audio Video Interleave
File size : 689 MiB
Duration : 1h 24mn
Overall bit rate : 1 134 Kbps
Movie name : www.RARBG.com
Writing application : Lavf55.19.100

Video
ID : 0
Format : MPEG-4 Visual
Format profile : Advanced [email protected]
Format settings, BVOP : 5
Format settings, QPel : No
Format settings, GMC : No warppoints
Format settings, Matrix : Default (H.263)
Codec ID : XVID
Codec ID/Hint : XviD
Duration : 1h 24mn
Bit rate : 739 Kbps
Width : 720 pixels
Height : 328 pixels
Display aspect ratio : 2.2:1
Frame rate : 23.976 fps
Color space : YUV
Chroma subsampling : 4:2:0
Bit depth : 8 bits
Scan type : Progressive
Compression mode : Lossy
Bits/(Pixel*Frame) : 0.131
Stream size : 449 MiB (65%)
Writing library : XviD 64

Audio
ID : 1
Format : AC-3
Format/Info : Audio Coding 3
Codec ID : 00001000-0000-0020-8000-00AA00389B71
Duration : 1h 24mn
Bit rate : 384 Kbps
Channel(s) : 6 channels
Channel positions : Front: L C R, Back: L R, LFE
Sampling rate : 48.0 KHz
Bit depth : 16 bits
Compression mode : Lossy
Stream size : 233 MiB (34%)
Interleave, duration : 32 ms (0.77 video frame)
Interleave, preload duration : 32 ms






WEBROmnvrs2013ALTYAZILI